现在的位置: 首页 > 资源分享 > 正文

味道.Taste.2013.1080p.HDRip.H264.AC3-JENT

2014 年 1 月 22 日下午 11:48 / 作者: 资源分享 ⁄ 字号 评论 1 条
分享到:

味道.Taste.2013.1080p.HDRip.H264.AC3 JENT  韩国 福利 剧情 2014

味道.Taste.2013.1080p.HDRip.H264.AC3 JENT  韩国 福利 剧情 2014

【译名】味道
【片名】Taste
【小组】JENT
【年代】2014/01/16
【国家】
【类型】
【片源】HDTV
【视频】1920×1080|x264| 3522 Kbps
【音频】韩语|AC3| 90Kbps
【体积】2.50 GB| 1CD
【时间】96 mins
【字幕】N/A
【IMDB评分】N/A
【IMDB链接】N/A
【导演】 Kyeong Seok-ho
【主演】Jeong Hyeon-woo | Yoo Da-eun |  Hee Jeong  | Lee Eun-mi-I | Kim Jin-seon | Jeong So-yeong
【截图】

味道.Taste.2013.1080p.HDRip.H264.AC3 JENT  韩国 福利 剧情 2014

味道.Taste.2013.1080p.HDRip.H264.AC3 JENT  韩国 福利 剧情 2014

味道.Taste.2013.1080p.HDRip.H264.AC3 JENT  韩国 福利 剧情 2014

味道.Taste.2013.1080p.HDRip.H264.AC3 JENT  韩国 福利 剧情 2014

味道.Taste.2013.1080p.HDRip.H264.AC3 JENT  韩国 福利 剧情 2014

味道.Taste.2013.1080p.HDRip.H264.AC3 JENT  韩国 福利 剧情 2014

味道.Taste.2013.1080p.HDRip.H264.AC3 JENT  韩国 福利 剧情 2014

味道.Taste.2013.1080p.HDRip.H264.AC3 JENT  韩国 福利 剧情 2014

味道.Taste.2013.1080p.HDRip.H264.AC3 JENT  韩国 福利 剧情 2014

味道.Taste.2013.1080p.HDRip.H264.AC3 JENT  韩国 福利 剧情 2014

味道.Taste.2013.1080p.HDRip.H264.AC3 JENT  韩国 福利 剧情 2014

味道.Taste.2013.1080p.HDRip.H264.AC3 JENT  韩国 福利 剧情 2014

味道.Taste.2013.1080p.HDRip.H264.AC3 JENT  韩国 福利 剧情 2014

味道.Taste.2013.1080p.HDRip.H264.AC3 JENT  韩国 福利 剧情 2014

General
Unique ID : 206241573915674847773584897016036535092 (0x9B28AEAB17DC747EBB36B2CF155F2B34)
Complete name : Taste.2013.1080p.HDRip.H264.AC3-JENT.mkv
Format : Matroska
Format version : Version 2
File size : 2.50 GiB
Duration : 1h 36mn
Overall bit rate : 3 692 Kbps
Writing application : PotEncoder
Writing library : PotEncoder
Video #1
ID : 1
Format : AVC
Format/Info : Advanced Video Codec
Format profile : Baseline@L4.0
Format settings, CABAC : No
Format settings, ReFrames : 2 frames
Codec ID : V_MPEG4/ISO/AVC
Duration : 1h 36mn
Bit rate : 3 522 Kbps
Width : 1 920 pixels
Height : 1 080 pixels
Display aspect ratio : 16:9
Frame rate mode : Constant
Frame rate : 29.970 fps
Color space : YUV
Chroma subsampling : 4:2:0
Bit depth : 8 bits
Scan type : Progressive
Bits/(Pixel*Frame) : 0.057
Stream size : 2.38 GiB (95%)
Default : Yes
Forced : No
Audio #2
ID : 2
Format : AC-3
Format/Info : Audio Coding 3
Mode extension : CM (complete main)
Format settings, Endianness : Big
Codec ID : A_AC3
Duration : 1h 36mn
Bit rate mode : Constant
Bit rate : 96.0 Kbps
Channel count : 2 channels
Channel positions : Front: L R
Sampling rate : 44.1 KHz
Bit depth : 16 bits
Compression mode : Lossy
Stream size : 66.4 MiB (3%)
Default : Yes
Forced : No

味道.Taste.2013.1080p.HDRip.H264.AC3 JENT  韩国 福利 剧情 2014

磁力下载

引用

Taste.2013.1080p.HDRip.H264.AC3-JENT   2.5GB

BT下载

引用

Taste.2013.1080p.HDRip.H264.AC3-JENT    2.5GB

微信公众账号,扫描下面二维码,以关注“经典电影的那点事”。

味道.Taste.2013.1080p.HDRip.H264.AC3 JENT  韩国 福利 剧情 2014



Switch to our mobile site

无觅相关文章插件,快速提升流量

×